<?xml version="1.0" standalone="no"?>
<!DOCTYPE svg PUBLIC "-//W3C//DTD SVG 1.1//EN" "http://www.w3.org/Graphics/SVG/1.1/DTD/svg11.dtd" >
<svg xmlns="http://www.w3.org/2000/svg">
<metadata>Generated by IcoMoon</metadata>
<defs>
<font id="icomoon" horiz-adv-x="512">
<font-face units-per-em="512" ascent="480" descent="-32" />
<missing-glyph horiz-adv-x="512" />
<glyph unicode="&#x20;" d="" horiz-adv-x="256" />
<glyph unicode="&#xe600;" d="M416.046 286.394c-5.12 44.776-22.342 50.944-56.739 53.341-48.849 3.421-157.813 3.421-206.662 0-34.328-2.397-51.572-8.565-56.692-53.341-3.793-33.257-3.817-89.995 0-123.299 5.12-44.8 22.365-50.944 56.715-53.387 48.85-3.421 157.836-3.421 206.685 0 34.374 2.421 51.596 8.587 56.716 53.387 3.793 33.233 3.793 89.926-0.024 123.299zM202.24 147.084v154.787l130.863-77.358-130.863-77.428z" />
<glyph unicode="&#xe601;" d="M399.384 386.909h-66.514l-110.15-195.025 73.425-130.793h66.56l-73.425 130.793zM197.493 327.261h-66.536l36.701-64.256-55.064-98.63h66.536l57.368 98.63z" />
<glyph unicode="&#xe602;" d="M364.73 257.582c14.080-3.677 19.154 6.819 18.409 23.459-0.536 11.566-5.329 19.014-8.146 23.878-7.424 12.59-22.411 20.596-36.189 20.782-2.536 0.024-5.027-0.186-7.447-0.721-6.586-1.419-14.522-4.236-11.497-16.896 3.328-12.149 21.946-5.493 29.207-9.938s8.704-8.727 10.123-16.616c1.512-9.053-5.911-20.946 5.539-23.947zM429.917 290.816c-2.048 23.832-16.733 47.965-35.026 63.022-15.197 12.567-37.423 19.992-57.344 20.108-2.839 0-5.632-0.139-8.355-0.442-10.776-1.14-21.83-3.56-22.039-16.105-0.233-11.31 8.541-13.777 14.406-13.521 19.991 0.861 37.725 5.166 59.671-15.104 13.358-12.381 23.762-34.49 21.69-48.314-3.91-25.554-7.587-35.165 4.12-38.796 25.228-7.843 24.413 31.256 22.877 49.152zM217.88 219.089c-6.19-0.024-12.102-0.931-17.129-2.606-37.585-12.474-46.802-44.591-38.191-68.654 8.611-24.041 44.195-34.118 72.68-21.83 28.462 12.312 41.286 41.589 31.279 64.419-9.053 20.526-30.138 28.672-48.64 28.672zM206.15 145.943c-10.286-5.958-22.784-3.305-25.856 3.258-4.399 9.216-2.607 19.433 7.656 25.414 3.84 2.257 7.82 3.258 11.474 3.258 6.12 0 11.357-2.676 13.894-6.772 4.049-6.563 3.119-19.154-7.168-25.158zM337.291 237.917c-3.793 1.256 15.151 38.121-5.608 48.57-35.002 17.594-82.734-15.546-80.617-6.726 3.91 16.733 12.242 51.107-17.292 52.69-2.024 0.209-4.096 0.303-6.167 0.279-64.629-0.512-155.648-105.1-145.362-161.28 11.148-61.114 84.27-87.459 156.672-85.132 65.256-0.373 156.253 50.293 146.432 108.87-0.978 20.55-23.18 34.257-48.058 42.728zM228.934 107.264c-57.391-5.353-106.799 21.574-110.382 60.090-3.561 38.586 40.029 74.24 97.466 79.616 4.492 0.442 8.913 0.675 13.288 0.698 51.526 0.419 93.835-25.227 97.070-60.835 3.63-38.517-40.053-74.147-97.443-79.57z" />
<glyph unicode="&#xe603;" d="M177.78 268.381c5.841 5.865 12.334 10.706 19.246 14.546 38.493 21.224 87.901 9.891 112.128-27.625l-29.952-30.581c-8.634 19.642-29.952 30.79-51.13 26.019-7.959-1.792-15.593-5.795-21.784-11.916l-57.437-57.414c-17.454-17.408-17.454-45.894 0-63.721 17.454-17.827 45.87-17.827 63.721 0l17.734 17.688c16.035-5.050 33.141-7.587 50.968-7.587l-39.075-39.098c-33.489-33.512-87.762-33.512-121.274 0-33.489 33.466-33.489 87.738 0 121.274l56.856 58.414zM268.963 359.563l-39.121-39.029c17.035 1.257 33.117-2.56 50.92-7.703l17.757 17.711c17.454 17.431 45.847 17.431 63.651 0 17.454-17.85 17.897-45.87 0-63.232l-57.368-57.391c-17.501-17.501-45.894-17.315-63.232 0-4.026 4.050-7.517 9.099-9.704 14.010l-29.952-29.882c3.165-5.096 7.656-10.194 10.194-13.103 10.822-10.193 25.483-17.85 40.774-22.923 20.526-5.12 43.31-2.514 61.533 8.238 6.889 3.724 13.428 8.587 19.27 14.452l57.437 57.414c33.443 33.489 33.443 87.808 0 121.251-34.421 33.466-87.482 33.466-123.136 0.186h0.978z" />
<glyph unicode="&#xe604;" d="M267.729 126.51c8.658 0 12.218 5.772 12.009 12.986-0.396 27.229 10.194 41.821 29.277 22.714 21.132-19.945 24.949-34.933 49.897-34.933 9.728 0 34.955 0 44.94 0 35.608 0 3.863 35.863-21.318 59.136-23.832 22.179-24.925 22.76-4.399 49.431 25.647 33.164 58.996 75.869 29.44 75.869-5.702 0-1.652 0-56.483 0-10.962 0-11.659-6.447-15.639-15.616-14.057-33.257-40.913-76.334-51.084-69.841-10.705 6.865-5.772 30.255-4.957 70.702 0.326 10.682 0.233 18.013-16.151 21.877-44.684 10.403-83.27-10.031-67.491-12.498 22.249-5.027 19.875-47.43 14.871-69.329-9.006-36.259-43.078 28.742-57.181 61.044-1.745 7.68-2.234 12.661-14.685 12.661-6.749 0-36.259 0-46.219 0-8.89 0-13.242-4.119-10.1-12.358 3.096-7.471 39.912-87.296 79.826-134.702 39.982-40.075 78.778-37.586 106.216-37.166h-0.768z" />
<glyph unicode="&#xe605;" d="M389.399 284.113c-1.187-27.439-19.317-65.070-54.505-112.896-36.282-49.85-66.956-74.822-92.090-75.822-15.546 0-28.742 15.174-39.494 45.591-7.121 27.858-14.382 55.762-21.528 83.526-7.936 31.93-15.802 46.15-25.274 46.15-2.001 0-8.983-4.469-20.946-13.288l-12.963 17.617c13.149 12.242 26.763 24.111 38.632 36.678 17.547 16.012 30.744 24.506 39.564 25.321 20.782 2.118 33.187-11.846 37.935-45.079 5.237-35.56 9.472-56.902 11.846-64.675 5.958-28.462 11.846-42.682 18.944-42.682 5.608 0 13.987 9.356 25.181 28.067 11.194 18.665 17.199 32.885 17.966 42.682 1.582 16.035-4.375 24.134-17.966 24.134-6.423 0-13.033-1.512-19.759-4.608 13.173 45.452 38.26 67.514 75.24 66.234 27.88-1.653 41.030-20.62 38.61-56.948h0.605z" />
<glyph unicode="&#xe606;" d="M409.926 349.579c-12.94-7.564-27.252-13.032-42.403-16.012-12.241 12.823-29.579 20.829-48.849 20.829-36.911 0-66.863-29.51-66.863-65.862 0-5.143 0.582-10.193 1.722-15.011-55.529 2.769-104.751 29.021-137.704 68.864-5.772-9.705-9.053-21.016-9.053-33.117 0-22.854 11.823-43.055 29.696-54.784-10.938 0.326-21.225 3.281-30.255 8.238 0-0.303 0-0.558 0-0.815 0-31.93 23.064-58.507 53.62-64.582-5.608-1.443-11.52-2.351-17.594-2.351-4.328 0-8.494 0.442-12.59 1.257 8.494-26.228 33.21-45.265 62.417-45.847-22.854-17.594-51.712-28.113-83.014-28.113-5.4 0-10.728 0.373-15.965 0.931 29.579-18.712 64.698-29.603 102.447-29.603 123.020 0 190.161 100.352 190.161 187.416 0 2.863-0.070 5.725-0.209 8.541 13.103 9.239 24.437 20.829 33.42 34.048-12.009-5.237-24.856-8.797-38.353-10.38 13.754 8.122 24.344 21.038 29.37 36.352z" />
<glyph unicode="&#xe607;" d="M220.928 368.477c-1.699-14.382-4.911-26.205-9.542-35.514-4.631-9.286-10.659-17.291-18.316-24.017-7.633-6.726-16.756-11.8-27.462-15.36v-39.797h29.905v-97.699c0-12.055 2.421-21.69 4.84-29.137 2.583-7.261 7.214-12.055 14.429-19.27 6.726-4.794 14.406-9.611 24.018-13.707 9.589-2.421 21.667-4.817 33.675-4.771 10.938 0 21.202 1.14 30.557 3.398 9.379 2.211 20.014 6.144 31.651 11.822v44.125c-13.638-9.216-27.368-13.707-41.216-13.707-7.773 0-14.639 1.815-20.69 5.469-4.538 2.723-7.704 6.539-9.425 11.147-1.582 4.562-2.467 14.918-2.467 31.093v71.517h64.791v43.846h-64.791v70.563h-39.959z" />
<glyph unicode="&#xe608;" d="M168.797 257.629c-9.774-0.117-18.99-3.864-25.903-10.776-6.958-6.958-10.752-16.174-10.752-25.926 0-9.798 3.793-19.037 10.752-25.926 6.912-6.935 16.105-10.728 25.903-10.728 20.248 0 36.678 16.477 36.678 36.701s-16.43 36.654-36.678 36.654zM346.275 257.443c-9.844 0-19.084-3.793-26.019-10.728-6.959-7.005-10.822-16.244-10.822-26.042 0-9.844 3.863-19.107 10.822-26.089 6.935-7.005 16.175-10.822 26.019-10.822 20.317 0 36.887 16.5 36.887 36.841 0 20.34-16.57 36.84-36.887 36.84zM446.185 315.997l-73.938-8.494c-0.978 0.303-1.978 0.512-2.955 0.791-3.212 5.027-25.298 33.536-113.594 33.536-96.907 0-114.036-34.327-114.036-34.327l-73.658 8.145c7.889-7.889 22.458-29.649 25.809-40.355-11.403-15.104-20.177-34.304-19.992-54.691 0.373-41.425 17.082-91.159 86.179-100.957 32 0.396 47.662 8.006 71.308 26.368l25.81-57.274 27.206 56.762c18.060-13.777 28.020-24.041 61.557-25.507 70.865 2.909 92.649 59.997 93.766 100.584 0.046 21.69-5.539 40.238-18.176 55.762 3.398 10.147 17.571 32.465 24.716 39.656zM168.96 153.6c-37.050 0-67.189 30.231-67.189 67.188 0 37.027 30.138 67.188 67.189 67.188 37.027 0 67.165-30.161 67.165-67.188 0-37.027-30.138-67.188-67.165-67.188zM345.018 154.997c-36.864 0-66.863 30.022-66.863 66.933 0 36.84 29.998 66.886 66.863 66.886 36.911 0 66.863-30.045 66.863-66.886 0-36.864-29.998-66.933-66.863-66.933z" />
<glyph unicode="&#xe609;" d="M272.733 262.4l21.341-11.613 33.885 11.101v22.342c0 38.539-33.094 68.515-72.378 68.515-39.261 0-72.518-28.043-72.518-68.631 0-39.215 0-102.912 0-102.028 0-9.332-7.726-16.826-17.175-16.826-9.518 0-17.222 7.447-17.222 16.826v43.171h-55.576v-44.125c0-39.238 31.861-71.098 73.542-70.609 39.797 0 72.053 31.092 72.634 69.608v101.656c0 9.216 7.703 16.71 17.222 16.71 9.472 0 17.152-7.354 17.152-16.71v-19.386h-0.908zM362.426 225.909v-45.219c0-9.262-7.68-16.733-17.175-17.175-9.542 0-17.152 7.447-17.152 16.779v44.358l-33.955-11.125-21.318 11.613v-44.009c0.419-39.261 31.861-71.121 73.542-71.121 40.006 0 72.541 31.697 72.541 70.563 0 0.582 0 43.916 0 43.916l-56.483 1.419z" />
<glyph unicode="&#xe60a;" d="M405.224 223.209c0 82.409-67.235 149.224-150.040 149.224-8.215 0-16.314-0.651-24.157-1.931-14.080 9.17-30.813 14.499-48.896 14.499-49.431 0-89.507-40.099-89.507-89.53 0-17.966 5.306-34.723 14.406-48.733-1.21-7.68-1.838-15.523-1.838-23.529 0-82.455 67.118-149.248 149.97-149.248 9.356 0 18.502 0.931 27.346 2.49 13.731-8.541 29.976-13.475 47.29-13.475 49.478 0 89.577 40.168 89.577 89.577 0 18.688-5.725 36.096-15.546 50.409 0.908 6.632 1.397 13.382 1.397 20.248zM269.219 113.222c-47.686-2.467-69.981 8.099-90.438 27.276-22.808 21.365-13.661 45.824 4.957 47.034 18.572 1.233 29.72-21.038 39.656-27.229 9.938-6.19 47.546-20.317 67.538 2.443 21.714 24.716-14.452 37.586-40.913 41.495-37.749 5.632-85.481 26.042-81.734 66.304 3.701 40.239 34.165 60.905 66.257 63.814 40.89 3.7 67.445-6.19 88.576-24.134 24.344-20.782 11.171-43.986-4.352-45.848-15.453-1.838-32.838 34.165-66.886 34.677-35.119 0.512-58.833-36.562-15.476-47.104 43.311-10.519 89.763-14.848 106.542-54.458 16.733-39.656-26.019-81.757-73.728-84.27z" />
<glyph unicode="&#xe60b;" d="M192.186 122.205c0-20.806-16.942-37.702-37.818-37.702s-37.818 16.966-37.818 37.702c0 20.853 16.966 37.656 37.818 37.656 20.899 0.628 38.447-17.059 38.447-37.656h-0.629zM116.526 268.241v-55.854c70.423 0 126.697-58.275 129.233-127.907h56.041c-1.745 101.376-83.642 182.481-184.995 183.762h-0.279zM116.526 307.339c59.485 0 116.55-22.784 157.091-65.443 42.17-43.078 65.909-98.863 65.909-157.114h56.111c-0.419 153.67-125.184 278.226-279.272 278.738l0.163-56.18z" />
<glyph unicode="&#xe60c;" d="M170.31 192.326c16.361 28.904-5.283 35.258-8.657 56.203-13.87 85.643 98.77 144.128 157.766 84.294 40.82-41.449 13.94-168.89-51.875-155.648-63.069 12.683 30.813 114.083-19.456 133.981-40.89 16.198-62.581-49.478-43.194-82.106-11.381-56.134-35.863-108.986-25.926-179.386 32.139 23.32 42.984 68.026 51.851 114.572 16.174-9.821 24.786-19.991 45.405-21.62 75.962-5.888 118.435 75.822 108.009 151.273-9.216 66.839-75.846 100.887-146.921 92.904-56.203-6.284-112.221-51.712-114.549-116.69-1.466-39.656 9.821-69.423 47.546-77.777z" />
<glyph unicode="&#xe60d;" d="M93.091 340.363v-233.449h325.818v233.448h-325.818zM381.998 313.6l-126.045-93.37-125.952 93.37h251.997zM120.739 286.744l67.537-50.060-67.537-65.42v115.48zM121.018 133.702l89.414 86.552 45.544-33.745 45.288 33.56 89.228-86.388-269.475 0.024zM391.261 170.776l-67.863 65.722 67.863 50.246v-115.968z" />
<glyph unicode="&#xe60e;" d="M192.488 339.642c0-16.617-13.638-30.091-30.417-30.091-16.803 0-30.417 13.475-30.417 30.091 0 16.57 13.614 30.045 30.417 30.045 16.78-0.419 31.232-13.987 31.232-30.045h-0.815zM187.648 287.069h-50.921v-172.032h50.921v172.032zM277.224 287.069h-41.774l-0.629-172.032h47.569c0 0 0 63.814 0 90.275 0 24.203 18.036 41.658 39.563 38.749 19.176-2.583 25.204-14.103 25.204-38.493 0-23.925-0.488-91.113-0.488-90.531h47.174c0 0 0.582 63.534 0.582 109.591 0 46.103-23.366 64.698-60.555 64.698-37.213 0-52.317-25.507-52.317-25.507v23.25h-4.329z" />
<glyph unicode="&#xe60f;" d="M237.778 150.481l-12.544 33.932c0 0-20.248-22.621-50.642-22.621-26.973 0-46.080 23.482-46.080 60.998 0 48.058 24.203 65.327 48.035 65.327 34.304 0 44.474-23.412 53.83-50.827l12.52-39.051c12.451-37.469 35.095-67.91 102.958-68.375 48.454 0 81.175 14.848 81.175 53.969 0 31.604-17.944 48.035-51.526 55.878l-24.971 5.423c-17.199 3.957-22.179 10.985-22.179 22.644 0 13.312 10.543 21.108 27.695 21.108 18.758 0 28.090-7.029 30.44-23.808l39.121 4.678c-2.048 35.398-27.322 49.431-67.118 49.664-35.188 0-69.516-13.288-69.516-56.157 0-25.739 11.683-44.474 44.451-51.27l26.554-6.26c19.875-4.654 25.763-14.057 25.763-24.25 0-14.522-14.034-20.41-40.471-21.085-39.494 0-55.854 20.782-65.21 49.291l-12.916 39.029c-16.338 50.804-42.496 69.586-94.418 69.586-57.414 0-87.784-36.376-87.784-98.328 0-58.507 30.441-91.276 84.27-91.416 47.5 0.954 67.584 22.039 67.584 21.877h0.977z" />
<glyph unicode="&#xe610;" d="M328.634 233.728l70.353 0.744v-97.304c0-31.046-25.437-56.32-56.669-56.32h-172.823c-31.256 0-56.623 25.274-56.623 56.32v97.141h72.076c-1.885-15.756-2.234-17.338-1.304-24.506 5.423-42.589 42.589-61.51 73.333-61.719 38.912-2.421 62.906 23.18 72.68 68.12-1.048 16.942-0.396-1.978-0.396 17.501l-0.628 0.024zM168.168 367.104c0.465 0.024 0.838 0.024 1.304 0.024h9.146zM169.425 367.127h172.916c31.255 0 56.739-26.042 56.739-56.344l0.046-54.226h-78.546c-12.264 15.639-34.863 39.797-64.791 38.959-40.821-1.117-53.062-25.344-61.976-40.192l-80.942 2.188v53.248c0 19.014 7.377 47.011 42.38 56.297zM366.289 328.727c0 4.445-3.608 7.96-8.029 7.96h-27.136c-4.422 0-7.913-3.514-7.913-7.96v-27.485c0-4.724 2.374-7.098 7.098-7.983h27.089c4.375 0 8.029 3.631 8.029 7.983v27.485l0.861-0.907v0.907zM214.272 222.743c0-23.645 18.921-42.613 42.566-43.729 22.97 0 41.611 20.69 41.611 43.73 0 22.877-18.642 41.402-41.635 41.402-23.947-0.233-43.45-19.154-43.45-41.402h0.907z" />
<glyph unicode="&#xe611;" d="M419.375 267.171h-45.452l0.488-45.568h-31.279l-0.512 45.079-43.147 0.442-0.558 29.277 44.125 0.186v46.941h31.255v-46.452l45.056-0.977 0.024-28.928zM285.184 147.13c0-28.323-25.786-62.79-90.763-62.79-47.546 0-87.226 20.573-87.226 55.017 0 26.671 16.873 61.091 95.581 61.091-11.637 9.589-14.546 22.901-7.4 37.329-46.080 0-69.702 27.136-69.702 61.556 0 33.676 25.042 64.28 76.125 64.28 12.963 0 82.386 0 82.386 0l-18.827-19.154h-21.481c15.151-9.704 24.227-26.671 24.227-46.29 0-18.106-9.938-32.744-24.111-43.613-25.251-19.502-18.781-31.511 7.261-49.641 25.391-19.666 34.071-34.211 34.071-57.763h-0.139zM229.539 299.148c-3.514 21.504-20.852 39.121-41.146 39.633-20.294 0.488-33.909-15.988-30.417-37.469 3.514-21.807 21.83-36.352 43.636-36.352 19.736-2.165 30.371 12.358 27.951 33.931l-0.024 0.256zM245.387 142.872c0 16.454-18.153 32.093-48.57 32.093-27.416 0.349-50.712-14.313-50.712-31.512 0-16.966 19.386-31.512 46.034-31.627 36.305 0.721 54.411 12.87 54.411 31.046h-1.163z" />
<glyph unicode="&#xe612;" d="M339.875 371.433c-15.406-6.656-31.861-10.286-49.454-10.985-11.147 6.61-24.087 11.078-38.935 10.985-36.328 0-72.424-24.483-73.914-65.512-1.094-29.114 12.125-50.944 36.375-64.885-11.031-5.096-15.453-16.826-15.453-28.323 0-12.125 7.285-24.25 14.546-29.091-25.903-10.822-40.913-26.414-40.913-50.13 0-75.171 162.583-77.638 163.002 3.165 0 29.579-20.363 50.921-70.517 59.066-19.828 2.769-30.347 32.885-1.070 38.353 41.961 6.888 70.168 46.499 55.389 89.995 6.26 0.931 12.498 2.444 18.642 4.561l2.257 42.31v0.488h0.046zM256.046 158.418c22.854 0.419 36.352-7.261 36.352-22.132 0.326-15.686-12.544-22.784-34.49-21.83-24.413 0.070-38.237 6.796-38.726 22.97 0.093 12.753 11.264 20.038 37.958 20.992h-1.094zM252.649 271.476c-19.339-0.279-28.207 10.356-28.23 30.929 0 18.758 8.588 30.464 27.811 30.581 17.175 0.070 26.671-12.125 26.671-31.534 1.327-20.271-9.635-29.976-26.624-30.441l0.373 0.466z" />
<glyph unicode="&#xe613;" d="M407.505 196.887l-124.533-124.579c-14.941-14.872-39.285-14.872-54.132 0l-124.602 124.579c-14.871 14.988-14.871 39.285 0 54.179l124.602 124.602c14.848 14.848 39.214 14.848 53.574 0l56.25-56.274-84.504-84.504-39.727 39.843c-5.562 5.585-13.266 8.774-21.108 8.774-7.889 0-15.523-3.189-21.108-8.728l-25.507-25.46c-5.655-5.655-8.797-13.149-8.797-21.155s3.142-15.616 8.936-21.085l86.272-87.040c3.887-4.445 8.913-6.702 13.382-7.913l1.233-0.815 5.818-0.046c7.936 0 15.499 3.118 21.062 8.75l131.165 131.142h0.536c16.035-16.012 16.966-38.33 1.373-54.296l-0.186 0.024zM408.902 284.276l-148.178-148.294c-1.978-1.839-4.562-3.002-7.331-3.002v0c-0.047 0-0.047 0-0.093 0-0.395 0-0.792 0.046-1.117 0.116-2.351 0.279-4.469 1.327-6.097 2.886l-82.548 82.781c-4.026 3.979-3.98 10.519 0 14.476l24.413 24.39c1.931 1.885 4.538 2.979 7.238 3.002 2.723 0 4.469-2.234 6.702-3.048l50.99-51.084 116.573 116.573c1.932 1.955 4.491 3.026 7.261 3.026 2.723 0 4.445 0 6.68-3.026l24.32-24.413c5.144-3.258 4.375-9.96 2.141-14.406l-0.954 0.024z" />
<glyph unicode="&#xe614;" d="M242.153 134.493l-45.8 37.562 13.824 13.498 31.977-15.663v75.38h25.298v-39.704l36.724 11.101 6.865-20.014-41.17-17.827v-24.32l59.625 22.109 9.077-20.014-68.701-33.233v-39.983h123.741l-137.612 315.159-137.612-315.159h123.764z" />
<glyph unicode="&#xe615;" d="M233.704 224c0-35.616-28.873-64.488-64.488-64.488s-64.489 28.873-64.489 64.488c0 35.616 28.872 64.488 64.489 64.488 35.616 0 64.488-28.873 64.488-64.488zM407.272 224c0-35.616-28.873-64.488-64.488-64.488s-64.488 28.873-64.488 64.488c0 35.616 28.873 64.488 64.488 64.488 35.616 0 64.488-28.873 64.488-64.488z" />
<glyph unicode="&#xe616;" d="M315.043 235.334l-40.495-0.024 1.187-154.717h-57.088l0.326 154.717h-37.073v48.896l37.050 0.024-0.024 28.742c0 39.866 11.287 64.116 60.346 64.116h40.913v-48.896h-25.553c-19.176 0-20.084-6.796-20.084-19.549l-0.093-24.413h45.964l-5.376-48.896z" />
<glyph unicode="&#xe617;" d="M256.279 386.909c-90.135 0-163.189-73.146-163.189-162.909 0-89.181 73.286-162.374 162.63-162.909 90.136 0 163.189 72.937 163.189 162.909 0.582 89.763-71.563 162.909-163.189 162.909h0.559zM390.68 231.587c-35.048 5.725-67.235 6.028-96.582 1-3.375 7.656-6.772 15.267-10.403 22.784 31.418 13.568 56.692 32.024 75.497 55.342 18.315-22.155 29.44-49.571 31.674-79.15l-0.186 0.024zM338.385 329.751c-16.314-21.108-38.889-37.795-67.724-49.943-13.848 25.274-29.626 49.874-47.43 73.844 10.589 2.677 21.597 4.305 33.048 4.305 30.976 1.536 58.996-9.914 81.897-27.462l0.209-0.745zM195.445 343.924c18.13-22.877 34.374-48.011 48.105-73.030-33.024-9.728-72.494-14.685-118.063-16.012 9.425 40.565 36.305 72.565 70.679 89.041h-0.721zM121.414 224c0 1.21 0.163 2.327 0.233 3.514 52.294 0.093 97.443 6.12 135.261 17.944 3.165-6.842 6.865-13.708 9.146-19.456-45.964-14.313-83.851-43.683-113.291-87.994-19.526 22.528-32.186 52.27-32.186 85.993h0.838zM173.568 117.108c26.763 41.868 60.952 69.144 103.261 81.734 12.637-32.024 22.923-66.304 27.509-101.329-15.034-5.725-31.325-9.077-48.337-9.146-30.929 1.28-59.834 12.707-82.734 29.626l0.303-0.885zM331.147 112.128c-6.005 31.907-14.801 63.209-26.089 93.579 25.414 3.654 53.597 2.606 84.783-2.63-6.4-38.005-28.672-70.005-58.507-90.95h-0.186z" />
<glyph unicode="&#xe618;" d="M250.112 255.907c67.304 1.629 121.53-32.559 130.211-87.924l-67.328-1.35-0.466 44.753c-14.592 7.843-19.317 10.473-34.723 12.195l-0.815-91.089h165.19c-8.704 89.32-88.762 159.208-186.205 159.208-1.699 0-3.398 0-5.027-0.024l0.395 47.918c-15.36 1.28-26.205-6.423-40.89-14.638l-0.28-37.795c-73.612-19.13-133.213-81.198-140.358-154.624h181.178v123.368h-0.885zM211.13 169.309l-78.173-2.002c6.097 37.725 45.94 72.983 77.568 83.712l0.605-81.711z" />
<glyph unicode="&#xe619;" d="M361.961 363.613h-211.689c-18.734 0-33.909-15.127-33.909-33.839v-211.526c0-19.875 14.453-34.839 33.675-33.862h211.666c18.758 0 33.932 15.151 33.932 33.862v211.526c0.326 18.595-14.336 33.536-33.582 33.839h-0.093zM370.176 123.276c0-5.865-8.006-14.080-13.824-13.545h-100.352v114.246h-111.267l-0.721 97.722c0 5.841 9.472 15.034 15.267 15.034h96.722v-112.733h114.921l-0.745-100.724z" />
<glyph unicode="&#xe61a;" d="M245.55 306.456c6.284-9.286 9.146-18.595 9.146-32.233 0-12.893-3.212-23.25-9.472-31.093-3.537-4.375-8.704-8.378-15.616-11.613 10.472-4.655 18.292-9.286 22.854-18.688 5.329-9.286 6.865-18.595 6.865-30.976 0-12.451-3.096-23.762-9.077-32.512-3.816-6.563-8.704-12.149-14.429-16.803-6.563-5.050-14.196-8.448-23.087-10.473-8.867-1.769-18.478-2.979-28.765-2.979h-91.858v209.943h98.537c26.904 0.698 44.264-8.611 55.691-22.574h-0.792zM135.144 290.606v-46.894h49.92c8.89 0 16.151 1.815 21.667 5.283 5.608 3.468 8.378 9.704 8.378 18.712 0 9.821-3.701 16.454-11.054 19.572-6.353 2.234-14.382 3.328-24.227 3.328l-44.684-0.395v0.395zM135.144 208.477v-56.739h49.85c8.96 0 15.872 1.233 20.806 3.817 9.006 4.678 13.522 13.336 13.522 26.461 0 11.147-4.375 18.897-13.102 22.901-4.864 2.281-11.66 3.398-20.55 3.538l-50.525 0.024zM386.7 273.943c10.333-4.654 18.246-11.636 25.111-22.784 6.12-9.286 9.146-20.899 11.45-31.814 0.954-6.959 2.281-16.245 2.281-30.534h-107.916c0.582-16.245 6.819-25.553 16.012-32.488 5.772-4.608 13.707-4.608 20.55-5.748 8.913 0 16.012 2.421 21.504 7.192 3.096 2.421 4.375 3.817 6.726 8.238h40.355c-0.931-9.216-5.399-16.058-13.917-25.507-13.195-15.034-31.697-22.528-55.715-23.25-19.736 0-37.166 6.353-52.108 18.874-15.151 12.637-19.409 33.536-19.409 61.928 0 26.624 3.467 46.825 17.128 60.998 13.591 14.219 31.232 21.318 52.969 21.318 12.986 0.535 24.786-1.792 33.955-6.819l1.024 0.396zM324.236 237.382c-5.446-5.958-7.634-18.036-9.099-27.88l71.308-0.791c-0.768 10.892-1.699 22.435-9.589 32.885-6.307 5.678-17.501 6.865-26.88 6.865-10.193-0.070-19.060-4.725-25.926-11.101l0.186 0.024zM412.113 340.363h-109.568v-36.864h109.568v36.864z" />
<glyph unicode="&#xe61b;" d="M255.279 188.067c26.461-31.395 57.972-57.972 99.048-57.414 55.017 0 87.855 41.774 87.855 94.952 0 53.038-33.466 92.462-87.413 92.462-43.008 0-71.192-27.974-98.49-60.998-27.951 33.512-55.691 60.998-99.584 60.998-52.504 0-86.877-39.517-86.877-94.184 0-53.132 36.236-94.208 89.391-93.952 44.916 1.862 69.283 30.837 95.814 58.135h0.256zM109.731 223.976c0 23.529 15.267 49.198 43.404 49.198 28.696 0 57.065-29.882 78.778-49.734-19.084-22.272-46.894-46.313-75.986-46.313-29.906 0.536-45.941 19.596-45.941 46.848h-0.256zM282.671 221.696c20.178 21.876 45.219 49.408 74.915 49.408 28.998 0 45.917-21.597 45.917-48.245 0-25.716-15.011-47.127-43.659-45.917-31.022-1.14-57.461 20.457-76.381 44.218l-0.791 0.536z" />
</font>
</defs>
</svg>
